<svg id="svg2" version="1.0" viewBox="0 0 20997.333 28222.223" style="clip-rule:evenodd;fill-rule:evenodd;image-rendering:optimizeQuality;shape-rendering:geometricPrecision;text-rendering:geometricPrecision" height="1000" width="744" xml:space="preserve" xmlns="http://www.w3.org/2000/svg"><defs id="defs4"><style id="style135" type="text/css">@font-face{font-family:&quot;Arial&quot;;src:url(#FontID0) format(svg)}.str0,.str4{stroke:#000;stroke-width:39.69}.str0{stroke-width:52.92}.str3{stroke:#fff;stroke-width:79.38}.fil1,.fil6{fill:none}.fil6{fill-rule:nonzero}.fil2{fill:#000}.fnt1,.fnt2,.fnt3,.fnt4{font-weight:400;font-size:299.34;font-family:&apos;Arial&apos;}.fnt1,.fnt2,.fnt4{font-size:399.12}.fnt1,.fnt4{font-size:523.85}.fnt4{font-size:823.19}</style><font style="font-style:normal;font-variant:normal;font-weight:400" vert-adv-y="90" vert-origin-y="90" vert-origin-x="45" horiz-origin-y="0" horiz-origin-x="0" font-weight="400" font-style="normal" font-variant="normal" horiz-adv-x="666" id="FontID0"><font-face id="font-face7" font-family="Arial"/><missing-glyph id="missing-glyph9"><path id="path11" d="M0 0z"/></missing-glyph><glyph id="glyph13" horiz-adv-x="332" unicode="-"><path id="path15" d="M31.67 214.839v88.328h270.16v-88.328H31.67z"/></glyph><glyph id="glyph17" horiz-adv-x="277"/><glyph id="glyph19" horiz-adv-x="556" unicode="2"><path id="path21" d="M503.508 84.486V0H30.334c-.668 21.18 2.673 41.491 10.156 61 12.026 32.339 31.335 64.008 57.86 95.344 26.659 31.169 64.977 67.315 114.986 108.338C291.174 328.489 343.823 379 371.183 416.349c27.327 37.148 40.99 72.493 40.99 105.666 0 34.81-12.494 64.141-37.348 88.16-24.989 23.82-57.493 35.813-97.481 35.813-42.36 0-76.168-12.661-101.523-38.15-25.49-25.323-38.318-60.5-38.652-105.333l-90.332 9.154c6.18 67.515 29.498 118.828 69.82 154.173 40.356 35.344 94.675 53.016 162.691 53.016 68.651 0 122.971-19.175 162.992-57.192 40.155-38.15 60.166-85.321 60.166-141.645 0-28.663-5.846-56.859-17.672-84.52-11.66-27.66-31.169-56.825-58.329-87.325-27.16-30.668-72.325-72.66-135.498-126.011-52.682-44.33-86.49-74.33-101.523-90.165-15-15.668-27.326-31.503-37.148-47.505h351.173z"/></glyph><glyph id="glyph23" horiz-adv-x="556" unicode="3"><path id="path25" d="m41.992 189.016 87.827 11.659c10.19-49.843 27.36-85.689 51.513-107.67 24.32-22.015 53.819-33.006 88.662-33.006 41.324 0 76.335 14.332 104.831 42.995 28.329 28.663 42.66 64.174 42.66 106.5 0 40.356-13.162 73.663-39.486 99.854-26.492 26.157-60 39.32-100.655 39.32-16.67 0-37.35-3.341-62.003-9.822l9.821 77.17c5.846-.668 10.49-1.003 14.165-1.003 37.348 0 71.023 9.822 101.022 29.332 29.999 19.476 44.999 49.642 44.999 90.332 0 32.17-11.025 58.996-32.84 79.976-21.847 21.18-50.01 31.836-84.519 31.836-34.141 0-62.67-10.823-85.32-32.17-22.85-21.481-37.516-53.819-43.997-96.813l-87.827 15.667c10.657 58.997 35.144 104.664 73.161 137.001 38.15 32.338 85.488 48.674 142.146 48.674 39.02 0 74.998-8.519 107.837-25.189 32.839-16.837 57.994-39.654 75.5-68.65 17.338-28.998 26.19-59.665 26.19-92.337 0-30.835-8.351-58.997-25.021-84.52-16.67-25.322-41.157-45.5-73.662-60.5 42.326-9.654 75.165-29.999 98.683-60.833 23.318-30.668 34.977-69.152 34.977-115.32 0-62.504-22.65-115.487-68.317-158.983-45.5-43.53-103.16-65.177-172.847-65.177-62.838 0-114.986 18.675-156.478 56.157-41.524 37.349-65.176 85.822-71.023 145.52z"/></glyph><glyph id="glyph27" horiz-adv-x="556" unicode="4"><path id="path29" d="M323.178 0v171.344H12.662v80.644l326.685 463.854h71.825V251.988h96.646v-80.644h-96.646V0h-87.994zm0 251.988v322.677L99.152 251.988h224.026z"/></glyph><glyph id="glyph31" horiz-adv-x="556" unicode="0"><path id="path33" d="M41.491 353.002c0 84.661 8.67 152.836 26.183 204.325 17.338 51.664 43.32 91.501 77.67 119.513 34.326 27.987 77.496 41.992 129.486 41.992 38.51 0 72.159-7.842 101.173-23.326 28.989-15.334 52.841-37.683 71.833-66.847 18.841-29.164 33.674-64.667 44.322-106.484 10.85-41.842 16.186-98.166 16.186-169.172 0-84.01-8.67-151.659-25.832-203.347-17.338-51.664-43.17-91.476-77.52-119.663-34.326-28.162-77.646-42.168-130.161-42.168-69.002 0-123.171 24.68-162.508 74.188-47.154 59.481-70.831 156.645-70.831 290.99zm90.35 0c0-117.509 13.83-195.68 41.315-234.666 27.51-38.835 61.335-58.328 101.674-58.328 40.514 0 74.339 19.668 101.849 58.654 27.486 39.01 41.316 117.183 41.316 234.34 0 117.835-13.83 196.158-41.316 234.843-27.51 38.835-61.686 58.153-102.676 58.153-40.514 0-72.66-17.163-96.838-51.338-30.166-43.496-45.325-124.148-45.325-241.657z"/></glyph><glyph id="glyph35" horiz-adv-x="556" unicode="1"><path id="path37" d="M372.494 0h-87.818v560.007c-21.172-20.17-48.833-40.339-83.183-60.508-34.501-20.17-65.319-35.328-92.654-45.325v84.837c49.158 23.15 92.153 51.162 128.984 83.985 36.68 32.997 62.838 64.842 78.172 95.835h56.5V.001z"/></glyph><glyph id="glyph39" horiz-adv-x="833" unicode="M"><path id="path41" d="M74.162 0v715.835h142.674L386.16 208.991c15.673-47.15 27.165-82.485 34.17-105.985 8.17 26 20.846 64.331 38.18 114.823l171.327 498.005h127.498V-.001h-91.342v599.16L457.994-.001h-85.502L165.505 609.334V-.001H74.162z"/></glyph><glyph id="glyph43" horiz-adv-x="722" unicode="D"><path id="path45" d="M77.163 0v715.837h246.504c55.662 0 98.167-3.499 127.504-10.338 41-9.33 75.997-26.494 104.994-51.167 37.67-31.997 66-72.668 84.67-122.329 18.83-49.672 28.16-106.342 28.16-170.167 0-54.337-6.33-102.504-19.158-144.499-12.67-42.007-28.839-76.835-48.834-104.338-19.838-27.502-41.51-49.162-65.173-64.833-23.494-15.828-51.993-27.83-85.327-35.994C416.999 3.997 378.661 0 335.499 0H77.163zm94.669 84.5h152.832c47.17 0 84.33 4.337 111.165 13.169 26.834 8.831 48.166 21.161 64.177 37.16 22.498 22.34 39.99 52.673 52.49 90.502 12.5 37.998 18.842 83.832 18.842 138 0 74.83-12.342 132.339-36.832 172.5-24.673 40.33-54.508 67.165-89.676 80.832-25.328 9.84-66.327 14.674-122.499 14.674h-150.5V84.501z"/></glyph><glyph id="glyph47" horiz-adv-x="667" unicode="B"><path id="path49" d="M73.167 0v715.837h268.662c54.665 0 98.507-7.337 131.5-21.672 33.176-14.504 59.003-36.832 77.674-66.995 18.66-30.005 28.159-61.505 28.159-94.498 0-30.504-8.334-59.343-25-86.335-16.497-27.005-41.668-48.835-75.16-65.502 43.332-12.67 76.496-34.33 99.832-64.833 23.336-30.673 34.998-66.837 34.998-108.505 0-33.491-7.168-64.663-21.332-93.502-14.164-28.827-31.67-50.997-52.503-66.667-20.834-15.659-47-27.333-78.33-35.326C430.339 3.996 391.83 0 346.167 0h-273zm94.838 414.995H322.83c41.837 0 72 2.843 90.332 8.333 24.004 7.168 42.177 19 54.337 35.667 12.172 16.666 18.331 37.5 18.331 62.5 0 23.677-5.66 44.668-16.995 62.671-11.504 18.161-27.83 30.503-48.834 37.173-21.162 6.657-57.496 9.997-109.003 9.997H168.005v-216.34zm0-330.495h178.161c30.673 0 52.163 1.166 64.505 3.329 21.83 4.008 39.991 10.507 54.666 19.667 14.662 9.001 26.664 22.34 36.164 39.675 9.33 17.493 14.164 37.5 14.164 60.326 0 26.665-6.827 49.83-20.493 69.668-13.667 19.668-32.666 33.504-57.01 41.497-24.162 7.836-59.16 11.832-104.666 11.832h-165.49V84.5z"/></glyph><glyph id="glyph51" horiz-adv-x="722" unicode="C"><path id="path53" d="m587.84 251.007 94.817-24.015c-19.815-77.655-55.665-136.985-107.149-177.99C523.833 8.17 460.838-12.16 386.16-12.16c-77.16 0-139.83 15.653-188.165 46.998-48.334 31.498-85.158 76.988-110.337 136.49C62.498 231 49.842 295.007 49.842 363.328c0 74.506 14.164 139.506 42.665 195 28.5 55.511 68.99 97.68 121.657 126.505 52.496 28.825 110.337 43.161 173.504 43.161 71.662 0 131.832-18.154 180.662-54.653 48.83-36.499 82.829-87.677 101.995-153.842l-93.157-21.99c-16.665 52.152-40.66 89.987-72.33 113.83-31.497 23.823-71.165 35.659-119.174 35.659-54.997 0-100.83-13.172-137.826-39.496-36.996-26.497-63.015-61.831-77.847-106.328-14.985-44.345-22.488-90.179-22.488-137.348 0-60.991 8.839-113.983 26.497-159.492 17.83-45.338 45.337-79.336 82.829-101.842 37.51-22.488 78-33.655 121.676-33.655 52.992 0 97.833 15.329 134.657 45.834 36.842 30.657 61.678 76.166 74.678 136.337z"/></glyph><glyph id="glyph55" horiz-adv-x="722" unicode="R"><path id="path57" d="M78.668 0v715.835h317.324c63.835 0 112.34-6.51 145.5-19.338 33.177-12.828 59.673-35.506 79.679-67.996 19.834-32.662 29.665-68.665 29.665-108.008 0-50.835-16.34-93.5-49.327-128.32-32.834-34.837-83.67-57-152.334-66.507 25.16-12.007 44.154-23.823 57.154-35.659 27.68-25.332 53.832-57.173 78.667-95.18L709.497 0H590.341l-94.683 148.993c-27.661 42.837-50.492 75.842-68.493 98.502-17.83 22.83-33.827 38.847-47.991 47.838-14.164 9.163-28.5 15.5-43.18 19.166-10.824 2.176-28.33 3.34-52.82 3.34H173.331V0H78.668zm94.664 399.828h203.665c43.161 0 77.179 4.505 101.5 13.496 24.51 9.01 43.008 23.347 55.664 43.009 12.675 19.662 19.013 41.004 19.013 64.16 0 33.845-12.18 61.677-36.843 83.516-24.491 21.819-63.338 32.662-116.503 32.662H173.332V399.828z"/></glyph><glyph id="glyph59" horiz-adv-x="610" unicode="T"><path id="path61" d="M259.335 0v631.338H23.5v84.491h567.33v-84.491H354.002V0h-94.666z"/></glyph><glyph id="glyph63" horiz-adv-x="666" unicode="S"><path id="path65" d="m44.995 229.994 89.34 7.846c4.162-35.832 13.993-65.173 29.494-88.176 15.5-23.003 39.496-41.501 72.006-55.666 32.491-14.164 69.163-21.17 109.824-21.17 36.176 0 68.017 5.345 95.679 15.997 27.66 10.843 48.335 25.504 61.831 44.174 13.497 18.841 20.331 39.172 20.331 61.335 0 22.507-6.49 41.998-19.663 58.835-13 16.837-34.495 30.83-64.332 42.17-19.338 7.502-61.68 19.166-127.501 34.991-65.669 15.845-111.828 30.677-138.172 44.67-34.17 17.83-59.656 40.165-76.493 66.662-16.665 26.496-25.008 56.181-25.008 89.168 0 36.004 10.175 69.83 30.678 101.176 20.483 31.498 50.492 55.322 89.817 71.663 39.516 16.17 83.175 24.34 131.338 24.34 53.165 0 99.84-8.514 140.501-25.676 40.509-16.99 71.663-42.17 93.502-75.328 21.667-33.178 33.503-70.843 35.163-112.84l-90.829-6.835c-5.001 45.167-21.495 79.51-49.672 102.512-28.157 23.156-69.658 34.648-124.656 34.648-57.345 0-99-10.499-125.344-31.498-26.153-20.999-39.325-46.33-39.325-75.824 0-25.829 9.335-47 27.833-63.493 18.327-16.685 65.822-33.675 142.83-51.008 77.009-17.505 129.83-32.663 158.503-45.663 41.673-19.338 72.503-43.677 92.338-73 19.834-29.512 29.665-63.511 29.665-101.843 0-38.16-10.843-73.992-32.681-107.666-21.82-33.656-53.166-59.828-93.999-78.67-40.833-18.65-86.82-27.985-137.828-27.985-64.829 0-119.159 9.335-162.836 28.33-43.83 18.822-78.153 47.17-103.16 85.159-24.836 37.836-38.008 80.845-39.173 128.665z"/></glyph><glyph id="glyph67" horiz-adv-x="222" unicode="l"><path id="path69" d="M64.007 0v715.835h87.83V0h-87.83z"/></glyph><glyph id="glyph71" horiz-adv-x="556" unicode="d"><path id="path73" d="M402.329 0v65.496c-32.834-51.503-81.168-77.16-145.003-77.16-41.329 0-79.317 11.34-113.983 34.17-34.666 22.66-61.506 54.5-80.672 95.486-19.013 40.832-28.5 87.678-28.5 140.842 0 51.675 8.666 98.673 25.828 140.842 17.333 42.15 43.16 74.487 77.675 96.821 34.494 22.507 73.17 33.846 115.835 33.846 31.154 0 58.986-6.681 83.325-19.834 24.492-13.172 44.326-30.333 59.674-51.503v256.829h87.334V0H402.33zM124.501 258.834c0-66.508 13.993-116.159 41.997-148.993 28.004-32.834 61.01-49.346 99.17-49.346 38.331 0 70.993 15.844 97.833 47.17 26.84 31.345 40.336 79.336 40.336 143.839 0 70.993-13.668 122.993-41.004 156.17-27.336 33.331-60.991 49.824-101.174 49.824-39 0-71.662-15.997-97.834-47.838-26.152-31.822-39.324-82.16-39.324-150.826z"/></glyph><glyph id="glyph75" horiz-adv-x="556" unicode="a"><path id="path77" d="M404.333 64.007c-32.662-27.68-64.007-47.17-93.996-58.681-30.162-11.32-62.5-16.99-97.013-16.99-56.982 0-100.659 13.84-131.316 41.673C51.503 57.84 36.174 93.5 36.174 136.662c0 25.503 5.65 48.678 17.334 69.676 11.491 20.998 26.668 37.835 45.318 50.492 18.841 12.675 39.84 22.334 63.339 28.844 17.161 4.486 43.16 8.99 77.999 13.152 70.994 8.514 123.337 18.517 156.839 30.333.325 12.008.496 19.682.496 22.85 0 35.831-8.342 61.163-25.007 75.652-22.334 20.006-55.817 29.837-99.99 29.837-41.329 0-71.834-7.159-91.668-21.667-19.662-14.489-34.17-40.164-43.676-77.007L51.33 370.66c7.827 36.67 20.674 66.507 38.504 89.014 17.83 22.659 43.83 40.164 77.656 52.324 33.845 12.16 73.017 18.345 117.667 18.345 44.344 0 80.175-5.345 107.836-15.673 27.68-10.499 48.01-23.499 61.181-39.343 13-15.825 21.991-35.659 27.317-59.826 2.845-15.005 4.334-41.997 4.334-80.997v-117.17c0-81.837 1.832-133.493 5.67-155.007C495.16 40.661 502.661 19.834 513.657 0h-91.82c-9.01 18.173-15.005 39.496-17.505 64.007zm-7.33 196.335c-31.994-13.172-79.832-24.167-143.495-33.35-36.175-5.153-61.85-10.995-76.683-17.485-14.985-6.51-26.668-16.016-34.666-28.673-8.151-12.503-12.332-26.343-12.332-41.672 0-23.499 9.01-42.99 26.668-58.662 17.677-15.5 43.677-23.327 77.847-23.327 33.826 0 63.988 7.33 90.331 22.163 26.324 14.832 45.834 35.163 58.165 60.838 9.488 19.834 14.165 49.155 14.165 87.83v32.338z"/></glyph><glyph id="glyph79" horiz-adv-x="556" unicode="e"><path id="path81" d="m420.835 166.998 90.83-11.168c-14.337-53.165-40.834-94.322-79.49-123.664-38.848-29.169-88.348-43.83-148.5-43.83-75.844 0-136.016 23.328-180.342 70.003-44.498 46.655-66.661 112.153-66.661 196.49 0 87.336 22.488 155.01 67.33 203.174 44.994 48.163 103.16 72.33 174.823 72.33 69.335 0 126.012-23.67 169.843-70.841C492.67 412.34 514.66 345.83 514.66 260.328c0-5.326-.153-13.153-.496-23.5H127.5c3.168-57.002 19.338-100.66 48.335-130.822 28.997-30.334 65-45.51 108.335-45.51 32.166 0 59.656 8.495 82.487 25.504 22.85 16.837 40.833 43.83 54.177 80.998zM132.331 309.16h289.497c-3.818 43.506-14.986 76.34-33.159 98.007-28.005 33.827-64.333 50.836-108.831 50.836-40.337 0-74.336-13.496-101.844-40.509-27.49-26.993-42.666-63.168-45.663-108.335z"/></glyph><glyph id="glyph83" horiz-adv-x="833" unicode="m"><path id="path85" d="M65.993 0v518.498h78.498v-72.656c16.34 25.332 38.007 45.816 65 61.164 27.013 15.5 57.843 23.328 92.338 23.328 38.332 0 69.83-7.999 94.342-23.996 24.664-15.998 41.997-38.18 52-66.834 41.158 60.496 94.495 90.83 160.163 90.83 51.505 0 91.001-14.337 118.662-42.838s41.502-72.331 41.502-131.49V-.002h-87.336v326.665c0 35.164-2.826 60.496-8.495 75.997-5.842 15.348-16.17 27.833-31.002 37.34-15.005 9.334-32.663 14.164-52.84 14.164-36.5 0-66.662-12.16-90.83-36.5-23.996-24.168-36.156-62.996-36.156-116.333V0h-87.832v336.84c0 39.152-7.178 68.493-21.514 87.984-14.318 19.51-37.665 29.341-70.327 29.341-24.664 0-47.496-6.49-68.494-19.662-21-13-36.347-31.995-45.663-57.003-9.507-25.16-14.184-61.335-14.184-108.506V0H65.993z"/></glyph><glyph id="glyph87" horiz-adv-x="556" unicode="g"><path id="path89" d="m49.824-43.01 85.504-12.656c3.512-26.325 13.496-45.51 29.665-57.67 21.839-16.17 51.676-24.34 89.34-24.34 40.834 0 72.16 8.17 94.342 24.34 22.164 16.34 36.996 39.172 44.823 68.341 4.677 18.002 6.662 55.494 6.338 112.821C361.504 22.66 313.664 0 256.338 0 184.999 0 129.83 25.676 90.828 77.161c-39 51.333-58.662 113.164-58.662 185 0 49.5 8.991 95.181 26.84 137.006 18.002 41.826 44.002 74.164 78.001 96.996 33.999 22.678 73.992 34.17 119.827 34.17 61.164 0 111.675-24.835 151.325-74.335v62.5h81.17V70.327c0-80.655-8.323-138-24.664-171.655-16.494-33.675-42.494-60.343-78.173-79.834-35.66-19.51-79.49-29.34-131.662-29.34-61.832 0-111.828 14.011-149.836 41.844C66.834-140.825 48.507-99 49.824-43.01zM122.5 268.499c0-67.998 13.497-117.67 40.662-148.824C190.173 88.328 224 72.827 264.66 72.827c40.336 0 74.163 15.501 101.5 46.503 27.336 31.174 41.004 79.833 41.004 146.342 0 63.493-13.992 111.332-42.169 143.498-28.157 32.166-62.156 48.335-101.825 48.335-39 0-72.178-15.844-99.668-47.667-27.336-31.67-41.005-78.84-41.005-141.34z"/></glyph><glyph id="glyph91" horiz-adv-x="556" unicode="n"><path id="path93" d="M65.993 0v518.498h79.013V444.83c38.16 57.003 93.158 85.504 164.993 85.504 31.326 0 60-5.67 86.171-16.837 26.325-11.34 45.835-26 58.835-44.327 13.153-18.174 22.164-39.84 27.49-64.829 3.169-16.34 4.83-44.842 4.83-85.503V0h-87.986v315.497c0 35.679-3.34 62.5-10.174 80.33-6.835 17.677-18.995 31.841-36.328 42.34C335.33 448.84 315 454.166 291.5 454.166c-37.492 0-69.659-12.007-96.995-35.66-27.165-23.843-40.68-68.837-40.68-135.347V0H65.992z"/></glyph><glyph id="glyph95" horiz-adv-x="556" unicode="h"><path id="path97" d="M65.993 0v715.829h87.833V458.995c41.005 47.495 92.833 71.339 155.334 71.339 38.332 0 71.682-7.675 100.01-22.832 28.33-15.004 48.66-36.003 60.82-62.672 12.18-26.668 18.346-65.497 18.346-116.16V0h-88.004v328.67c0 43.83-9.507 75.824-28.501 95.83s-46.006 30.162-80.826 30.162c-26 0-50.512-6.834-73.496-20.33-23.003-13.497-39.344-31.823-49.003-54.998-9.832-23.003-14.68-54.998-14.68-95.66V.002H65.992z"/></glyph><glyph id="glyph99" horiz-adv-x="500" unicode="c"><path id="path101" d="m404.341 190.001 86.324-11.34C481.33 119.16 457.162 72.505 418.162 38.83c-38.829-33.656-86.668-50.493-143.326-50.493-70.842 0-127.997 23.156-171.006 69.506-43.162 46.331-64.829 112.821-64.829 199.488 0 56.01 9.335 104.994 27.833 147.011 18.67 41.998 46.827 73.496 84.835 94.495 37.836 20.998 79.165 31.498 123.664 31.498 56.334 0 102.493-14.336 138.172-42.838 35.832-28.5 58.835-68.837 68.99-121.335l-85.503-13.152c-8.151 34.82-22.488 60.991-43.162 78.65-20.655 17.505-45.662 26.343-75.003 26.343-44.327 0-80.33-15.844-107.991-47.667-27.662-31.67-41.502-81.838-41.502-150.504 0-69.658 13.325-120.323 40.165-151.993 26.669-31.498 61.508-47.342 104.498-47.342 34.496 0 63.168 10.67 86.343 31.841 23.156 21.17 37.836 53.662 44.002 97.664z"/></glyph><glyph id="glyph103" horiz-adv-x="222" unicode="i"><path id="path105" d="M66.337 614.672v101.157h88.004V614.672H66.337zM66.337 0v518.498h88.004V0H66.337z"/></glyph><glyph id="glyph107" horiz-adv-x="332" unicode="r"><path id="path109" d="M65 0v518.507h78.992v-78.515c20.177 36.671 38.847 61.01 56.008 72.674 17.009 11.663 35.83 17.676 56.333 17.676 29.665 0 59.673-9.506 90.331-28.347l-30.333-81.665c-21.323 12.828-42.837 19.166-64.331 19.166-19.338 0-36.5-5.822-51.828-17.333C184.824 410.499 174 394.503 167.49 374c-9.831-31.173-14.661-65.324-14.661-102.49V0H65z"/></glyph><glyph id="glyph111" horiz-adv-x="556" unicode="u"><path id="path113" d="M405.841 0v76.167c-40.508-58.662-95.333-87.83-164.665-87.83-30.505 0-59.177 5.822-85.673 17.504-26.496 11.664-46.178 26.496-59.006 44.154-13 17.83-21.99 39.496-27.164 65.172-3.493 17.333-5.326 44.669-5.326 82.16v321.18h87.83V231.001c0-46.005 1.833-76.835 5.326-92.832 5.67-23.174 17.334-41.175 35.163-54.5 18.001-13.172 40.183-19.662 66.508-19.662 26.324 0 51.007 6.662 74.162 20.158 23.175 13.497 39.496 31.994 49.003 55.169 9.66 23.327 14.508 57.173 14.508 101.327v277.847h87.83V.001h-78.495z"/></glyph><glyph id="glyph115" horiz-adv-x="499" unicode="x"><path id="path117" d="m7.33 0 189.501 269.505L21.495 518.508h109.841l79.66-121.504c14.833-23.175 27.012-42.512 36.003-58.166 14.336 21.495 27.508 40.49 39.668 57.154l87.334 122.516h104.992L299.84 274.335 492.661.001H384.825l-106.5 161.172-28.328 43.486L113.832.001H7.332z"/></glyph><glyph id="glyph119" horiz-adv-x="500" unicode="s"><path id="path121" d="m30.83 154.837 86.84 13.668c4.83-34.839 18.497-61.507 40.833-80.177 22.163-18.498 53.337-27.833 93.501-27.833 40.337 0 70.327 8.342 89.837 24.664 19.49 16.513 29.322 35.832 29.322 57.842 0 20.006-8.667 35.507-26 47-11.989 7.826-41.998 17.657-89.837 29.665-64.333 16.34-109.155 30.334-133.991 42.341-24.836 11.817-43.83 28.33-56.678 49.328C51.83 332.334 45.34 355.51 45.34 380.841c0 23.156 5.326 44.498 15.997 64.16 10.5 19.835 24.988 36.157 43.162 49.157 13.668 10.003 32.338 18.67 55.838 25.676 23.67 7.006 49.003 10.5 75.996 10.5 40.661 0 76.34-5.995 107.17-17.659 30.83-11.683 53.49-27.508 68.17-47.514 14.66-20.16 24.664-46.828 30.162-80.33l-85.828-11.836c-4.009 26.669-15.348 47.496-33.999 62.5-18.67 15.005-45.166 22.507-79.337 22.507-40.337 0-69.162-6.662-86.343-20.006-17.334-13.325-26-28.997-26-46.827 0-11.511 3.665-21.667 10.842-30.83 7.159-9.507 18.326-17.181 33.656-23.5 8.838-3.169 34.667-10.671 77.676-22.335 62.156-16.665 105.49-30.162 130.002-40.833 24.664-10.5 44.002-26 57.995-46.178 14.012-20.16 20.999-45.167 20.999-75.157 0-29.34-8.667-56.83-25.657-82.83-17.18-25.848-41.845-45.835-74.011-60-32.167-14.164-68.666-21.17-109.327-21.17-67.502 0-118.834 13.993-154.17 41.997-35.334 28.005-57.822 69.506-67.5 124.504z"/></glyph><glyph id="glyph123" horiz-adv-x="277" unicode="t"><path id="path125" d="M257.827 78.67 270.503.992c-24.664-5.155-46.828-7.827-66.337-7.827-31.995 0-56.659 5.001-74.336 15.176-17.505 9.984-29.838 23.328-36.996 39.822C85.675 64.504 81.99 99.17 81.99 151.84v298.335H17.506v68.322H81.99v128.493l87.507 52.669V518.498h88.329v-68.323h-88.329V146.991c0-25.16 1.509-41.157 4.506-48.316 3.169-7.178 8.17-12.847 15.157-17.18 7.006-4.162 17.009-6.32 30.01-6.32 9.83 0 22.659 1.165 38.656 3.494z"/></glyph><glyph id="glyph127" horiz-adv-x="722" unicode="w"><path id="path129" d="M161.672 0 2.998 518.498h90.83l82.505-299.328 30.659-111.332c1.336 5.67 10.346 41.33 26.84 106.998l82.506 303.661h90.333l77.657-300.664 26-99.171 29.666 100.164 88.844 299.672h85.503L552.173 0H461l-82.506 310.496-20.159 88.5L253.495 0h-91.823z"/></glyph><glyph id="glyph131" horiz-adv-x="332" unicode="·"><path id="path133" d="M116.159 311.005v100.162H216.34V311.005H116.159z"/></glyph></font>
</defs>
</svg>
